Building Mobile Apps with Google Maps Android API v2

http://i70.fastpic.ru/big/2015/0626/37/3faf9adccd7e19a2a4926e2b642b7e37.jpg

Building Mobile Apps with Google Maps Android API v2
English | MP4 + Project Files | 960 x 540 | AVC ~336 kbps | 15 fps
AAC | 131 Kbps | 48.0 KHz | 1 channel | ~3.5 hour | 753.5 MB
Genre: Video Tutorial / Programming, Android

"Maps make mobile apps more useful; they can help users find businesses and areas of interest, get directions, or gain insights into new communities. In this course, learn to add interactive maps to your Android apps with Google Maps Android API v2. David Gassner first shows you how to set up the tools, get an API key, and import and link to Google Play services."

After an introduction to presenting simple maps with the MapView and MapFragment classes, the course describes how to set a map's initial state, switch between different map types, work with map markers, draw shapes, and work with zoom controls, the My Location button, and various user gestures. Finally, learn to add a map to an existing app and prepare it for distribution.
Note: An Android device with Android 3.0 (Honeycomb) or higher, and that has Google Play Store installed, is required to use the course exercises. (Kindle Fire and Nook devices do not qualify.) Finished mapping apps can be deployed on Android 2.2 (Froyo) or later.

Content:

Introduction
Welcome
What you should know before watching this course
Using the exercise files

1. Getting Started
Understanding the Maps API terms of service
Setting up the developer tools
Connecting and testing an Android device
Using the SDK documentation
Demonstrating the finished apps

2. Creating Your First Maps App
Adding required permissions to a project
Getting a Google Maps API key
Importing and linking the Google Play services library
Checking the device for the Google Play services APK
Displaying your first map

3. Presenting Simple Maps
Displaying a map with MapView
Getting a reference to the map object
Setting a map's initial state in the layout
Setting a map's initial state programmatically
Geocoding an address to get its coordinates
Changing between different types of map objects
Maintaining map state between activity restarts

4. Working with the Current Location
Enabling the My Location button
Getting the current location programatically
Listening for current location updates

5. Displaying Map Markers
Adding map markers
Removing map markers
Customizing marker icon graphics
Displaying default info windows
Customizing marker info windows
Handling marker events
Dragging and dropping markers

6. Drawing on a Map
Drawing lines
Drawing polygons
Drawing circles

7. Adding a Map to an Existing App
Reviewing the tour finder application
Adding a map fragment to an activity
Passing the current location to another mapping app
Displaying Google Play services license terms
Preparing the app for distribution

Conclusion
Next steps

General
Complete name : 04_02_currloc.mp4
Format
: MPEG-4
Format profile : Base Media / Version 2
Codec ID
: mp42
File size
: 27.6 MiB
Duration
: 8mn 16s
Overall bit rate mode : Variable
Overall bit rate : 467 Kbps
Encoded date : UTC 2013-08-06 16:27:25
Tagged date
: UTC 2013-08-06 16:27:25
Writing library : Apple QuickTime
Copyright
: lynda.com

Video
ID : 2
Format
: AVC
Format/Info
: Advanced Video Codec
Format profile : Main@L3.1
Format settings, CABAC : Yes
Format settings, ReFrames : 3 frames
Format settings, GOP : M=3, N=30
Codec ID
: avc1
Codec ID/Info : Advanced Video Coding
Duration
: 8mn 16s
Bit rate
: 336 Kbps
Width
: 960 pixels
Height
: 540 pixels
Display aspect ratio : 16:9
Frame rate mode : Constant
Frame rate
: 15.000 fps
Color space
: YUV
Chroma subsampling

: 4:2:0
Bit depth
: 8 bits
Scan type
: Progressive
Bits/(Pixel*Frame)

: 0.043
Stream size
: 19.9 MiB (72%)
Language
: English
Encoded date : UTC 2013-08-06 16:27:25
Tagged date
: UTC 2013-08-06 16:27:25

Audio
ID : 1
Format
: AAC
Format/Info
: Advanced Audio Codec
Format profile : LC
Codec ID
: 40
Duration
: 8mn 16s
Bit rate mode : Variable
Bit rate
: 128 Kbps
Maximum bit rate : 131 Kbps
Channel(s)
: 1 channel
Channel positions: Front: C
Sampling rate : 48.0 KHz
Compression mode : Lossy
Stream size
: 7.57 MiB (27%)
Language
: English
Encoded date : UTC 2013-08-06 16:27:25
Tagged date
: UTC 2013-08-06 16:27:25

Screenshots

http://i70.fastpic.ru/big/2015/0626/3b/8054a6e9521f94e46493fb1921cb163b.jpg

http://i71.fastpic.ru/big/2015/0626/27/5757ae811fceac7f09f2ff22862e1f27.jpg

http://i70.fastpic.ru/big/2015/0626/3c/05eee3405a9140a52fcef20d82a7bb3c.jpg

http://i72.fastpic.ru/big/2015/0626/77/822064971dd895284810da2ed2d17d77.jpg

Buy Premium Account To Get Resumable Support & Max Speed
Links are Interchangeable – No Password
Download Building Mobile Apps with Google Maps Android API v2 With Rapidgator and Purchase Premium support me to keep site alive Rapidgator.net

Leave your comment

You need login to comment.